Genre: Comedy \ Family Age Rating: PG Quality: BluRay Rating: 6.6
 Diary of a Wimpy Kid: Rodrick Rules (2011)
IMDB User Ratings: 6.6 (22038 votes)
Diary of a Wimpy Kid: Rodrick Rules 2011 Cover
Director David Bowers Music Ed Shearmur
Year 2011 Runtime 1 Hour 39 Minutes
Country USAProducer David Bowers
IMDb Ratings: 6.6 Languages English
Genres Comedy, Family CastZachary Gordon, Devon Bostick, Rachael Harris, Robert Capron, Steve Zahn, Connor Fielding
 Summary
Greg and Rodrick don't get along, and his parents are fully aware of that. In order to help them get along, Greg's mother introduces Mom Bucks, which rewards them for getting along. But Rodrick isn't the only problem. He has to deal with any conflicts involving Holly Hills, as well as other embarrassing situations. Will Greg and Rodrick get along?


Genre Comedy, Family
Actors Zachary Gordon, Devon Bostick, Rachael Harris, Robert Capron, Steve Zahn, Connor Fielding, Owen Fielding, Peyton List, Karan Brar, Laine MacNeil, Grayson Russell, Terence Kelly, Fran Kranz, Bryce Hodgson, Andrew McNee
Plot Back in middle school after summer vacation, Greg Heffley and his older brother Rodrick must deal with their parents misguided attempts to have them bond.

Code:
http://www.imdb.com/title/tt1650043/
Code:
Format                                   : Matroska
Format version                           : Version 2
File size                                : 4.36 GiB
Duration                                 : 1h 39mn
Overall bit rate                         : 6 266 Kbps
Encoded date                             : UTC 2011-06-09 07:22:38
Writing application                      : mkvmerge v3.2.0 ('Beginnings') built on Feb 12 2010 16:46:17
Writing library                          : libebml v0.7.9 + libmatroska v0.8.1

Video
ID                                       : 1
Format                                   : AVC
Format/Info                              : Advanced Video Codec
Format profile                           : [email protected]
Format settings, CABAC                   : Yes
Format settings, ReFrames                : 5 frames
Codec ID                                 : V_MPEG4/ISO/AVC
Duration                                 : 1h 39mn
Bit rate                                 : 4 760 Kbps
Width                                    : 1 280 pixels
Height                                   : 544 pixels
Display aspect ratio                     : 2.35:1
Frame rate mode                          : Constant
Frame rate                               : 23.976 (24000/1001) fps
Color space                              : YUV
Chroma subsampling                       : 4:2:0
Bit depth                                : 8 bits
Scan type                                : Progressive
Bits/(Pixel*Frame)                       : 0.285
Stream size                              : 3.22 GiB (74%)
Writing library                          : x264 core 115 r1995 c1e60b9
Encoding settings                        : cabac=1 / ref=5 / deblock=1:0:0 / analyse=0x3:0x133 / me=umh / subme=7 / psy=1 / psy_rd=1.00:0.00 / mixed_ref=1 / me_range=16 / chroma_me=1 / trellis=1 / 8x8dct=1 / cqm=0 / deadzone=21,11 / fast_pskip=0 / chroma_qp_offset=-2 / threads=12 / sliced_threads=0 / nr=0 / decimate=1 / interlaced=0 / bluray_compat=0 / constrained_intra=0 / bframes=3 / b_pyramid=2 / b_adapt=1 / b_bias=0 / direct=1 / weightb=1 / open_gop=0 / weightp=2 / keyint=250 / keyint_min=23 / scenecut=40 / intra_refresh=0 / rc_lookahead=40 / rc=2pass / mbtree=1 / bitrate=4760 / ratetol=1.0 / qcomp=0.60 / qpmin=0 / qpmax=69 / qpstep=4 / cplxblur=20.0 / qblur=0.5 / ip_ratio=1.40 / aq=1:1.00
Language                                 : English
Default                                  : No
Forced                                   : No

Audio
ID                                       : 2
Format                                   : DTS
Format/Info                              : Digital Theater Systems
Mode                                     : 16
Format settings, Endianness              : Big
Codec ID                                 : A_DTS
Duration                                 : 1h 39mn
Bit rate mode                            : Constant
Bit rate                                 : 1 509 Kbps
Channel(s)                               : 6 channels
Channel positions                        : Front: L C R, Side: L R, LFE
Sampling rate                            : 48.0 KHz
Frame rate                               : 93.750 fps (512 spf)
Bit depth                                : 24 bits
Compression mode                         : Lossy
Stream size                              : 1.05 GiB (24%)
Default                                  : Yes
Forced                                   : No

Text
ID                                       : 3
Format                                   : UTF-8
Codec ID                                 : S_TEXT/UTF8
Codec ID/Info                            : UTF-8 Plain Text
Language                                 : English
Default                                  : Yes
Forced                                   : No
Code:
http://rapidgator.net/file/aedfda2ad904201c69f46f36b066e134/Diary.Of.A.Wimpy.Kid.Rodrick.Rules.720p.BluRay.x264-BLOW.part1.rar.html
http://rapidgator.net/file/7ea4417b5fb2bfd529544e5fd242119e/Diary.Of.A.Wimpy.Kid.Rodrick.Rules.720p.BluRay.x264-BLOW.part2.rar.html
http://rapidgator.net/file/765e18b9048fd1052b32413ba6f9a56d/Diary.Of.A.Wimpy.Kid.Rodrick.Rules.720p.BluRay.x264-BLOW.part3.rar.html