Genre: Comedy \ Family Age Rating: PG Quality: BluRay Rating: 6.3
 Diary of a Wimpy Kid: Dog Days (2012)
IMDB User Ratings: 6.3 (18636 votes)
Diary of a Wimpy Kid: Dog Days 2012 Cover
Director David Bowers Music Ed Shearmur
Year 2012 Runtime 1 Hour 34 Minutes
Country USA, CanadaProducer David Bowers
IMDb Ratings: 6.3 Languages English
Genres Comedy, Family CastZachary Gordon, Steve Zahn, Robert Capron, Devon Bostick, Rachael Harris, Peyton List
 Summary
Summer vacation started, and Greg has his own way to enjoy it with video games. However, his father wants him to go outside and stop playing video games, and his mother has her own plans, including a reading club. In addition, Greg can't get along with his father. The only thing they have in common is the hatred for the Lil Cutie Comics. Things only get worse after the stay at the beachside cabin goes totally wrong. Will anything go right? At least there's Holly Hills.


Genre Comedy, Family
Actors Zachary Gordon, Steve Zahn, Robert Capron, Devon Bostick, Rachael Harris, Peyton List, Grayson Russell, Karan Brar, Laine MacNeil, Connor Fielding, Owen Fielding, Melissa Roxburgh, Philip Maurice Hayes, Terence Kelly, Bronwen Smith
Plot Schools out. Summer vacation is on. However, Greg may not have the best summer vacation ever. What could go wrong?

Code:
http://www.imdb.com/title/tt2023453/
Code:
Format                                   : Matroska
Format version                           : Version 2
File size                                : 4.37 GiB
Duration                                 : 1h 33mn
Overall bit rate                         : 6 656 Kbps
Writing application                      : mkvmerge v4.1.1 ('Bouncin' Back') built on Jul  3 2010 22:54:08
Writing library                          : libebml v1.0.0 + libmatroska v1.0

Video
ID                                       : 1
Format                                   : AVC
Format/Info                              : Advanced Video Codec
Format profile                           : High@L4.1
Format settings, CABAC                   : Yes
Format settings, ReFrames                : 5 frames
Codec ID                                 : V_MPEG4/ISO/AVC
Duration                                 : 1h 33mn
Bit rate                                 : 5 148 Kbps
Width                                    : 1 280 pixels
Height                                   : 544 pixels
Display aspect ratio                     : 2.35:1
Frame rate mode                          : Constant
Frame rate                               : 23.976 (24000/1001) fps
Color space                              : YUV
Chroma subsampling                       : 4:2:0
Bit depth                                : 8 bits
Scan type                                : Progressive
Bits/(Pixel*Frame)                       : 0.308
Stream size                              : 3.29 GiB (75%)
Writing library                          : x264 core 129 r2230 1cffe9f
Encoding settings                        : cabac=1 / ref=5 / deblock=1:0:0 / analyse=0x3:0x113 / me=umh / subme=8 / psy=1 / psy_rd=1.00:0.00 / mixed_ref=1 / me_range=16 / chroma_me=1 / trellis=1 / 8x8dct=1 / cqm=0 / deadzone=21,11 / fast_pskip=1 / chroma_qp_offset=-2 / threads=12 / lookahead_threads=2 / sliced_threads=0 / nr=0 / decimate=1 / interlaced=0 / bluray_compat=0 / constrained_intra=0 / bframes=3 / b_pyramid=2 / b_adapt=2 / b_bias=0 / direct=3 / weightb=1 / open_gop=0 / weightp=2 / keyint=240 / keyint_min=24 / scenecut=40 / intra_refresh=0 / rc_lookahead=50 / rc=2pass / mbtree=1 / bitrate=5148 / ratetol=1.0 / qcomp=0.60 / qpmin=0 / qpmax=69 / qpstep=4 / cplxblur=20.0 / qblur=0.5 / ip_ratio=1.40 / aq=1:1.00
Language                                 : English
Default                                  : Yes
Forced                                   : No

Audio
ID                                       : 2
Format                                   : DTS
Format/Info                              : Digital Theater Systems
Mode                                     : 16
Format settings, Endianness              : Big
Codec ID                                 : A_DTS
Duration                                 : 1h 33mn
Bit rate mode                            : Constant
Bit rate                                 : 1 509 Kbps
Channel(s)                               : 6 channels
Channel positions                        : Front: L C R, Side: L R, LFE
Sampling rate                            : 48.0 KHz
Frame rate                               : 93.750 fps (512 spf)
Bit depth                                : 24 bits
Compression mode                         : Lossy
Stream size                              : 1 014 MiB (23%)
Language                                 : English
Default                                  : Yes
Forced                                   : No

Text
ID                                       : 3
Format                                   : UTF-8
Codec ID                                 : S_TEXT/UTF8
Codec ID/Info                            : UTF-8 Plain Text
Language                                 : English
Default                                  : No
Forced                                   : No
Code:
http://rapidgator.net/file/e044c94edf3065e752685f1411d433a9/Diary.of.a.Wimpy.Kid.Dog.Days.2012.720p.BluRay.X264-AMIABLE.part1.rar.html
http://rapidgator.net/file/bfb03f4cb61861e0c15ee8ab54af732e/Diary.of.a.Wimpy.Kid.Dog.Days.2012.720p.BluRay.X264-AMIABLE.part2.rar.html
http://rapidgator.net/file/56464875e7774d47a38151bfc9d71de7/Diary.of.a.Wimpy.Kid.Dog.Days.2012.720p.BluRay.X264-AMIABLE.part3.rar.html