Genre: Comedy \ Family Age Rating: PG Quality: BluRay Rating: 6.2
 Diary of a Wimpy Kid (2010)
IMDB User Ratings: 6.2 (36943 votes)
Diary of a Wimpy Kid 2010 Cover
Director Thor Freudenthal Music Theodore Shapiro
Year 2010 Runtime 1 Hour 34 Minutes
Country USA, UKProducer Thor Freudenthal
IMDb Ratings: 6.2 Languages English, German
Genres Comedy, Family CastZachary Gordon, Robert Capron, Rachael Harris, Steve Zahn, Connor Fielding, Owen Fielding
 Summary
To Greg Heffley, middle school is the dumbest idea ever invented. It's a place rigged with hundreds of social landmines, not the least of which are morons, wedgies, swirlies, bullies, lunchtime banishment to the cafeteria floor - and a festering piece of cheese with nuclear cooties. To survive the never-ending ordeal and attain the recognition and status he feels he so richly deserves, Greg devises an endless series of can't-miss schemes, all of which, of course, go awry. And he's getting it all down on paper, via a diary - "it's NOT a diary, it's a journal!" Greg insists, preferring the less-sissyfied designation - filled with his opinions, thoughts, tales of family trials and tribulations, and (would-be) schoolyard triumphs. "One day when I'm famous," writes Greg, "I'll have better things to do than answer people's stupid questions all day." So was born the Wimpy Kid's diary.


Genre Comedy, Family
Actors Zachary Gordon, Robert Capron, Rachael Harris, Steve Zahn, Connor Fielding, Owen Fielding, Devon Bostick, ChloŽ Grace Moretz, Karan Brar, Grayson Russell, Laine MacNeil, Alex Ferris, Andrew McNee, Belita Moreno, Rob LaBelle
Plot The adventures of a 12 year old who is fresh out of elementary and transitions to middle school, where he has to learn the consequences and responsibility to survive the year.
Code:
http://www.imdb.com/title/tt1196141/
Code:
Format                                   : Matroska
Format version                           : Version 2
File size                                : 4.37 GiB
Duration                                 : 1h 32mn
Overall bit rate                         : 6 754 Kbps
Encoded date                             : UTC 2010-07-23 14:12:29
Writing application                      : mkvmerge v4.1.1 ('Bouncin' Back') built on Jul  3 2010 22:54:08
Writing library                          : libebml v1.0.0 + libmatroska v1.0.0

Video
ID                                       : 1
Format                                   : AVC
Format/Info                              : Advanced Video Codec
Format profile                           : High@L4.1
Format settings, CABAC                   : Yes
Format settings, ReFrames                : 5 frames
Codec ID                                 : V_MPEG4/ISO/AVC
Duration                                 : 1h 32mn
Bit rate                                 : 5 246 Kbps
Width                                    : 1 280 pixels
Height                                   : 688 pixels
Display aspect ratio                     : 1.85:1
Frame rate mode                          : Constant
Frame rate                               : 23.976 (24000/1001) fps
Color space                              : YUV
Chroma subsampling                       : 4:2:0
Bit depth                                : 8 bits
Scan type                                : Progressive
Bits/(Pixel*Frame)                       : 0.248
Stream size                              : 3.30 GiB (76%)
Writing library                          : x264 core 104 r1677 19df41a
Encoding settings                        : cabac=1 / ref=5 / deblock=1:0:0 / analyse=0x3:0x113 / me=umh / subme=7 / psy=1 / psy_rd=1.00:0.00 / mixed_ref=1 / me_range=16 / chroma_me=1 / trellis=1 / 8x8dct=1 / cqm=0 / deadzone=21,11 / fast_pskip=1 / chroma_qp_offset=-2 / threads=12 / sliced_threads=0 / nr=0 / decimate=1 / interlaced=0 / constrained_intra=0 / bframes=3 / b_pyramid=2 / b_adapt=1 / b_bias=0 / direct=1 / weightb=1 / open_gop=0 / weightp=2 / keyint=250 / keyint_min=23 / scenecut=40 / intra_refresh=0 / rc_lookahead=40 / rc=2pass / mbtree=1 / bitrate=5246 / ratetol=1.0 / qcomp=0.60 / qpmin=10 / qpmax=51 / qpstep=4 / cplxblur=20.0 / qblur=0.5 / ip_ratio=1.40 / aq=1:1.00
Language                                 : English
Default                                  : Yes
Forced                                   : No

Audio
ID                                       : 2
Format                                   : DTS
Format/Info                              : Digital Theater Systems
Mode                                     : 16
Format settings, Endianness              : Big
Muxing mode                              : Header stripping
Codec ID                                 : A_DTS
Duration                                 : 1h 32mn
Bit rate mode                            : Constant
Bit rate                                 : 1 509 Kbps
Channel(s)                               : 6 channels
Channel positions                        : Front: L C R, Side: L R, LFE
Sampling rate                            : 48.0 KHz
Frame rate                               : 93.750 fps (512 spf)
Bit depth                                : 24 bits
Compression mode                         : Lossy
Stream size                              : 999 MiB (22%)
Language                                 : English
Default                                  : Yes
Forced                                   : No

Text
ID                                       : 3
Format                                   : UTF-8
Codec ID                                 : S_TEXT/UTF8
Codec ID/Info                            : UTF-8 Plain Text
Language                                 : English
Default                                  : Yes
Forced                                   : No
Code:
http://rapidgator.net/file/8b6e9d5c4c6553e5db3d3189e461629d/Diary.Of.A.Wimpy.Kid.2010.REPACK.720p.BluRay.x264-MACHD.part1.rar.html
http://rapidgator.net/file/0de780bfd2e65fe7538e0c2dd982d3b7/Diary.Of.A.Wimpy.Kid.2010.REPACK.720p.BluRay.x264-MACHD.part2.rar.html
http://rapidgator.net/file/85a11735ffc2b642c74302c21bfa4439/Diary.Of.A.Wimpy.Kid.2010.REPACK.720p.BluRay.x264-MACHD.part3.rar.html